找回密码
查看: 212|回复: 3
打印 上一主题 下一主题

[动作] 特工游戏 Agent.Game.2022.720p.BluRay.x264.DTS-MT 3.98GB

777老虎机游戏
蓝光币
840
跳转到指定楼层
1#
发表于 2022-5-14 15:13:15 | 只看该作者 回帖奖励 |倒序浏览 |阅读模式


◎译  名 特工游戏
◎片  名 Agent Game
◎年  代 2022
◎产  地 美国
◎类  别 动作
◎语  言 英语
◎上映日期 2022-04-08(美国)
◎IMDb链接 https://www.imdb.com/title/tt14168394/
◎豆瓣评分 4.7/10 (73人评价)
◎豆瓣链接 https://movie.douban.com/subject/35442929/
◎片  长 90分钟
◎导  演 格兰特·S·约翰逊 Grant S. Johnson (id:1460530)
◎编  剧 泰勒·科尼 Tyler W. Konney (id:1379282)
◎演  员 梅尔·吉布森 Mel Gibson (id:1054530)
       凯瑟琳·麦克纳马拉 Katherine McNamara (id:1343784)
       德蒙特·莫罗尼 Dermot Mulroney (id:1040534)
       凯蒂·卡西迪 Katie Cassidy (id:1036318)
       瑞斯·考罗 Rhys Coiro (id:1032074)
       安妮·伊隆泽 Annie Ilonzeh (id:1240107)
       詹森·艾萨克 Jason Isaacs (id:1017916)
       巴克德·阿巴蒂 Barkhad Abdi (id:1335066)
       阿丹·坎托 Adan Canto (id:1327521)
◎简  介

  詹森·艾萨克、巴克德·阿巴蒂([菲利普船长])、阿丹·坎托(《指定幸存者》)加盟出演间谍题材惊悚片[特工游戏](Agent Game,暂译)。格兰特·S·约翰逊执导,泰勒·科尼([深海越狱])、迈克·朗格共同操刀剧本。此前加盟的卡司包括德蒙特·莫罗尼、凯蒂·卡西迪、瑞斯·考罗、安妮·伊隆泽、梅尔·吉布森。该片讲述中情局官员哈里斯(莫罗尼饰)参与了拘留和重新安置外国国民进行审讯的任务。当哈里斯的上司(艾萨克斯)被谋杀时,他发现自己成了杀害一名被拘留者(阿巴蒂饰)的替罪羊,他必须躲避被派去抓他的一队特工(坎托、卡西迪、考罗饰),他们由一个无情的双面间谍(伊隆泽饰)领导。吉布森饰演一名流氓情报官员,负责追捕和杀害哈里斯的私下行动。
  1. Video
  2. ID                                       : 1
  3. Format                                   : AVC
  4. Format/Info                              : Advanced Video Codec
  5. Format profile                           : [email protected]
  6. Format settings                          : CABAC / 9 Ref Frames
  7. Format settings, CABAC                   : Yes
  8. Format settings, Reference frames        : 9 frames
  9. Codec ID                                 : V_MPEG4/ISO/AVC
  10. Duration                                 : 1 h 30 min
  11. Bit rate                                 : 4 811 kb/s
  12. Width                                    : 1 280 pixels
  13. Height                                   : 692 pixels
  14. Display aspect ratio                     : 1.85:1
  15. Frame rate mode                          : Constant
  16. Frame rate                               : 23.976 (24000/1001/189150) FPS
  17. Color space                              : YUV
  18. Chroma subsampling                       : 4:2:0
  19. Bit depth                                : 8 bits
  20. Scan type                                : Progressive
  21. Bits/(Pixel*Frame)                       : 0.227
  22. Stream size                              : 3.03 GiB (76%)
  23. Writing library                          : x264 core 157 r2938 2b00a84 [email protected] Mod
  24. Encoding settings                        : cabac=1 / ref=9 / deblock=1:-3:-3 / analyse=0x3:0x133 / me=umh / subme=10 / psy=1 / psy_rd=1.05:0.00 / mixed_ref=1 / me_range=32 / chroma_me=1 / trellis=2 / 8x8dct=1 / cqm=0 / deadzone=21,11 / fast_pskip=0 / chroma_qp_offset=-2 / threads=12 / lookahead_threads=2 / sliced_threads=0 / nr=0 / decimate=0 / interlaced=0 / bluray_compat=0 / constrained_intra=0 / bframes=8 / b_pyramid=2 / b_adapt=2 / b_bias=0 / direct=3 / weightb=1 / open_gop=0 / weightp=2 / keyint=250 / keyint_min=24 / scenecut=40 / intra_refresh=0 / rc_lookahead=250 / rc=crf / mbtree=0 / crf=16.8 / qcomp=0.60 / qpmin=0 / qpmax=69 / qpstep=4 / vbv_maxrate=62500 / vbv_bufsize=78125 / crf_max=0.0 / nal_hrd=none / filler=0 / ip_ratio=1.30 / pb_ratio=1.20 / aq=3:0.80
  25. Language                                 : English
  26. Default                                  : Yes
  27. Forced                                   : No
  28. Color range                              : Limited
  29. Color primaries                          : BT.709
  30. Matrix coefficients                      : BT.709
  31. Audio
  32. ID                                       : 2
  33. Format                                   : DTS
  34. Format/Info                              : Digital Theater Systems
  35. Codec ID                                 : A_DTS
  36. Duration                                 : 1 h 30 min
  37. Bit rate mode                            : Constant
  38. Bit rate                                 : 1 509 kb/s
  39. Channel(s)                               : 6 channels
  40. Channel layout                           : C L R Ls Rs LFE
  41. Sampling rate                            : 48.0 kHz
  42. Frame rate                               : 93.750 FPS (512 SPF)
  43. Bit depth                                : 24 bits
  44. Compression mode                         : Lossy
  45. Stream size                              : 973 MiB (24%)
  46. Language                                 : English
  47. Default                                  : Yes
  48. Forced                                   : No
  49. Text #1
  50. ID                                       : 3
  51. Format                                   : UTF-8
  52. Codec ID                                 : S_TEXT/UTF8
  53. Codec ID/Info                            : UTF-8 Plain Text
  54. Duration                                 : 1 h 22 min
  55. Bit rate                                 : 59 b/s
  56. Count of elements                        : 1083
  57. Stream size                              : 36.1 KiB (0%)
  58. Language                                 : English
  59. Default                                  : Yes
  60. Forced                                   : No
  61. Text #2
  62. ID                                       : 4
  63. Format                                   : UTF-8
  64. Codec ID                                 : S_TEXT/UTF8
  65. Codec ID/Info                            : UTF-8 Plain Text
  66. Duration                                 : 1 h 23 min
  67. Bit rate                                 : 64 b/s
  68. Count of elements                        : 1203
  69. Stream size                              : 39.1 KiB (0%)
  70. Title                                    : SDH
  71. Language                                 : English
  72. Default                                  : No
  73. Forced                                   : No
  74. Menu
  75. 00:00:00.000                             : en:Chapter 01
  76. 00:06:31.558                             : en:Chapter 02
  77. 00:09:06.129                             : en:Chapter 03
  78. 00:15:50.491                             : en:Chapter 04
  79. 00:22:57.376                             : en:Chapter 05
  80. 00:29:20.801                             : en:Chapter 06
  81. 00:31:53.620                             : en:Chapter 07
  82. 00:36:58.133                             : en:Chapter 08
  83. 00:41:44.836                             : en:Chapter 09
  84. 00:46:15.022                             : en:Chapter 10
  85. 00:50:23.103                             : en:Chapter 11
  86. 00:56:16.748                             : en:Chapter 12
  87. 01:02:58.191                             : en:Chapter 13
  88. 01:08:56.132                             : en:Chapter 14
  89. 01:14:29.298                             : en:Chapter 15
  90. 01:22:17.808                             : en:Chapter 16
复制代码







                                       
                                       

                                       
                                       
                                       




蓝光币
11
2#
发表于 2022-5-14 22:16:23 | 只看该作者

楼主发贴辛苦了,谢谢楼主分享!我觉得蓝光电影网是注册对了!
蓝光币
14
3#
发表于 2022-5-16 23:07:46 | 只看该作者
感觉不错的样子,很好
蓝光币
55
4#
发表于 2022-5-21 17:10:00 | 只看该作者
楼主发贴辛苦了,谢谢楼主分享!我觉得蓝光电影网是注册对了!
懒得打字嘛,点击右侧快捷回复 【右侧内容,后台自定义】
您需要登录后才可以回帖 登录 | 立即加入

本版积分规则

Archiver|小黑屋| 蓝光电影网 |网站地图

Copyright © 2021 Comsenz Inc. Powered by 777老虎机游戏

蓝光电影网

本站内容由用户自主分享和转载自互联网,转载目的在于传递更多信息,并不代表本网赞同其观点和对其真实性负责。

如有侵权、违反国家法律政策行为,请联系我们,我们会第一时间及时清除和处理!

举报反馈邮箱:[email protected]

www.138.bo 返回顶部 返回列表
网站地图 申博游戏平台 太阳城登入 申博代理 菲律宾太阳城申博
申博游戏端登入 www.38818.com 菲律宾申博娱乐 www.msc33.com
申博游戏平台 申博百家乐 真人百家乐 申博138开户
太阳城手机版 太阳城手机版 太阳城亚洲 777老虎机游戏登入
申博太阳城登入 申博开户 太阳城登入 申博手机版