找回密码
查看: 2219|回复: 31
打印 上一主题 下一主题

[2160p] 特工游戏 Agent.Game.2022.2160p.WEB-DL.x265.10bit.SDR.DD5.1-NOGRP 7.78GB

777老虎机游戏
蓝光币
840
跳转到指定楼层
1#
发表于 2022-4-8 17:07:00 | 只看该作者 回帖奖励 |倒序浏览 |阅读模式


◎译  名 特工游戏
◎片  名 Agent Game
◎年  代 2022
◎产  地 美国
◎类  别 动作
◎语  言 英语
◎IMDb链接 https://www.imdb.com/title/tt14168394/
◎豆瓣链接 https://movie.douban.com/subject/35442929/
◎导  演 格兰特·S·约翰逊 Grant S. Johnson (id:1460530)
◎编  剧 泰勒·科尼 Tyler W. Konney (id:1379282)
◎演  员 梅尔·吉布森 Mel Gibson (id:1054530)
       凯瑟琳·麦克纳马拉 Katherine McNamara (id:1343784)
       德蒙特·莫罗尼 Dermot Mulroney (id:1040534)
       凯蒂·卡西迪 Katie Cassidy (id:1036318)
       瑞斯·考罗 Rhys Coiro (id:1032074)
       安妮·伊隆泽 Annie Ilonzeh (id:1240107)
       詹森·艾萨克 Jason Isaacs (id:1017916)
       巴克德·阿巴蒂 Barkhad Abdi (id:1335066)
       阿丹·坎托 Adan Canto (id:1327521)
◎简  介

  詹森·艾萨克、巴克德·阿巴蒂([菲利普船长])、阿丹·坎托(《指定幸存者》)加盟出演间谍题材惊悚片[特工游戏](Agent Game,暂译)。格兰特·S·约翰逊执导,泰勒·科尼([深海越狱])、迈克·朗格共同操刀剧本。此前加盟的卡司包括德蒙特·莫罗尼、凯蒂·卡西迪、瑞斯·考罗、安妮·伊隆泽、梅尔·吉布森。该片讲述中情局官员哈里斯(莫罗尼饰)参与了拘留和重新安置外国国民进行审讯的任务。当哈里斯的上司(艾萨克斯)被谋杀时,他发现自己成了杀害一名被拘留者(阿巴蒂饰)的替罪羊,他必须躲避被派去抓他的一队特工(坎托、卡西迪、考罗饰),他们由一个无情的双面间谍(伊隆泽饰)领导。吉布森饰演一名流氓情报官员,负责追捕和杀害哈里斯的私下行动。
  1. Video
  2. ID                                       : 1
  3. Format                                   : HEVC
  4. Format/Info                              : High Efficiency Video Coding
  5. Format profile                           : Main [email protected]@High
  6. Codec ID                                 : V_MPEGH/ISO/HEVC
  7. Duration                                 : 1 h 30 min
  8. Bit rate                                 : 12.0 Mb/s
  9. Width                                    : 3 832 pixels
  10. Height                                   : 2 068 pixels
  11. Display aspect ratio                     : 1.85:1
  12. Frame rate mode                          : Constant
  13. Frame rate                               : 23.976 FPS
  14. Color space                              : YUV
  15. Chroma subsampling                       : 4:2:0
  16. Bit depth                                : 10 bits
  17. Bits/(Pixel*Frame)                       : 0.063
  18. Stream size                              : 7.53 GiB (97%)
  19. Language                                 : English
  20. Default                                  : Yes
  21. Forced                                   : No
  22. Color range                              : Limited
  23. Color primaries                          : BT.709
  24. Transfer characteristics                 : BT.709
  25. Matrix coefficients                      : BT.709
  26. Audio
  27. ID                                       : 2
  28. Format                                   : AC-3
  29. Format/Info                              : Audio Coding 3
  30. Commercial name                          : Dolby Digital
  31. Codec ID                                 : A_AC3
  32. Duration                                 : 1 h 30 min
  33. Bit rate mode                            : Constant
  34. Bit rate                                 : 384 kb/s
  35. Channel(s)                               : 6 channels
  36. Channel layout                           : L R C LFE Ls Rs
  37. Sampling rate                            : 48.0 kHz
  38. Frame rate                               : 31.250 FPS (1536 SPF)
  39. Compression mode                         : Lossy
  40. Stream size                              : 248 MiB (3%)
  41. Language                                 : English
  42. Service kind                             : Complete Main
  43. Default                                  : Yes
  44. Forced                                   : No
  45. Text
  46. ID                                       : 3
  47. Format                                   : UTF-8
  48. Codec ID                                 : S_TEXT/UTF8
  49. Codec ID/Info                            : UTF-8 Plain Text
  50. Duration                                 : 1 h 22 min
  51. Bit rate                                 : 60 b/s
  52. Count of elements                        : 1223
  53. Stream size                              : 36.3 KiB (0%)
  54. Language                                 : English
  55. Default                                  : Yes
  56. Forced                                   : No
复制代码




                                       
                                       

                                       
                                       
                                       




蓝光币
3338
2#
发表于 2022-4-8 18:42:23 | 只看该作者

我看不错噢 谢谢楼主!蓝光电影网越来越好!
蓝光币
106
3#
发表于 2022-4-8 19:57:23 | 只看该作者
谢谢楼主!蓝光电影网越来越好!
蓝光币
306
4#
发表于 2022-4-8 21:09:27 | 只看该作者

这个帖子不回对不起自己!我想我是一天也不能离开蓝光电影网。
蓝光币
97
6#
发表于 2022-4-8 21:34:29 | 只看该作者

既然你诚信诚意的推荐了,那我就勉为其难的看看吧!蓝光电影网不走平凡路。
蓝光币
155
7#
发表于 2022-4-8 22:24:30 | 只看该作者

我看不错噢 谢谢楼主!蓝光电影网越来越好!
蓝光币
41
8#
发表于 2022-4-8 22:31:05 | 只看该作者

楼主太厉害了!楼主,电影应该很好看我觉得蓝光电影网真是个好地方!
蓝光币
18
9#
发表于 2022-4-8 23:40:40 | 只看该作者
楼主太厉害了!楼主,电影应该很好看我觉得蓝光电影网真是个好地方!给力给力
蓝光币
333
10#
发表于 2022-4-9 19:51:02 | 只看该作者

这东西我收了!谢谢楼主!蓝光电影网真好!
懒得打字嘛,点击右侧快捷回复 【右侧内容,后台自定义】
您需要登录后才可以回帖 登录 | 立即加入

本版积分规则

Archiver|小黑屋| 蓝光电影网 |网站地图

Copyright © 2021 Comsenz Inc. Powered by 777老虎机游戏

蓝光电影网

本站内容由用户自主分享和转载自互联网,转载目的在于传递更多信息,并不代表本网赞同其观点和对其真实性负责。

如有侵权、违反国家法律政策行为,请联系我们,我们会第一时间及时清除和处理!

举报反馈邮箱:[email protected]

www.138.bo 返回顶部 返回列表
网站地图 申博太阳城 申博官网 ag国际馆 太阳城手机版
申博 菲律宾申博官网登入 申博支付宝充值 申博sunbet登入
申博客户端下载 申博app下载 盛618登入 太阳城手机版
澳门星际赌场 现金网百家乐 盛618网址 澳门博彩公司
极速百家乐 申博登入网址 现金网百家乐 申博客户端下载