找回密码
查看: 224|回复: 2
打印 上一主题 下一主题

[10bit.HDR] 760号犯人[简体字幕].The.Mauritanian.2021.UHD.2160p.x265.10bit.HDR-MiniHD 15.48GB

777老虎机游戏
蓝光币
5
跳转到指定楼层
1#
发表于 2022-5-14 18:11:43 | 只看该作者 |只看大图 回帖奖励 |倒序浏览 |阅读模式


◎译  名 760号犯人 / 诬罪审判(港) / 失控的审判(台) / 毛里塔尼亚人 / 760号囚犯 / 第760号囚犯 / Guantanamo Diary / Prisoner 760
◎片  名 The Mauritanian
◎年  代 2021
◎产  地 英国 / 美国
◎类  别 剧情 / 惊悚
◎语  言 法语 / 阿拉伯语 / 英语
◎上映日期 2021-02-12(美国)
◎IMDb链接 https://www.imdb.com/title/tt4761112/
◎豆瓣评分 7.3/10 (6349人评价)
◎豆瓣链接 https://movie.douban.com/subject/26996524/
◎片  长 129分钟
◎导  演 凯文·麦克唐纳 Kevin Macdonald
◎编  剧 迈克尔·布朗纳 Michael Bronner
       罗里·海恩斯 Rory Haines
       苏哈·诺什瓦尼 Sohrab Noshirvani
       穆罕默德·乌尔德·萨拉希 Mohamedou Ould Salahi
       拉里·西姆斯 Larry Siems
◎演  员 塔哈·拉希姆 Tahar Rahim
       朱迪·福斯特 Jodie Foster
       本尼迪克特·康伯巴奇 Benedict Cumberbatch
       扎克瑞·莱维 Zachary Levi
       谢琳·伍德蕾 Shailene Woodley
       沙莫·阿斯玛尼 Saamer Usmani
       克里·约翰逊 Corey Johnson
       马修·马什 Matthew Marsh
       大卫·芬恩 David Fynn
       安德烈·雅各布斯 Andre Jacobs
       兰利·柯克伍德 Langley Kirkwood
       史蒂夫·马克 Stevel Marc
       罗伯特·霍布斯 Robert Hobbs
       梅丽莎·海登 Melissa Haiden
       阿拉·萨菲 Alaa Safi
       埃文·亨斯特 Evan Hengst
       达伦-迈耶 Darron Meyer
       弗朗西斯·乔勒 Francis Chouler
       克莱顿·博伊德 Clayton Boyd
       南希·霍兰德 Nancy Hollander
       本尼迪克特·康伯巴奇 Benedict Cumberbatch
       穆罕默德·乌尔德·萨拉希 Mohamedou Ould Salahi
       拉里·西姆斯 Larry Siems
       亚历山德拉·伯恩 Alexandra Byrne
◎简  介
  影片改编自Mohamedou Ould Slahi的回忆录《关塔那摩日记》,讲述Slahi(塔哈饰)被美国政府俘虏,在毫无指控与判决的情况下被关进了监狱,他失去了希望。Slahi寻得辩护律师南希·霍兰德(福斯特饰)与助手特里·邓肯(伍德蕾饰)的帮助,他们在面对无数障碍的情况下,一同追求正义。在富有争议的主张及斯图尔特·库什中尉(康伯巴奇饰)揭露的证据下,一个令人震惊的阴谋露出水面。
◎获奖情况 (共11项)
  第78届金球奖 (2021)
  电影类 剧情片最佳男主角(提名)
   └──塔哈·拉希姆
  电影类 最佳女配角
   └──朱迪·福斯特
  第74届英国电影学院奖 (2021)
  电影奖 最佳影片(提名)
  电影奖 最佳英国影片(提名)
   └──凯文·麦克唐纳
  电影奖 最佳男主角(提名)
   └──塔哈·拉希姆
  电影奖 最佳改编剧本(提名)
  电影奖 最佳摄影(提名)
  第34届欧洲电影奖 (2021)
  最佳男主角(提名)
   └──塔哈·拉希姆
  第41届伦敦影评人协会奖 (2021)
  年度电影(提名)
  年度导演(提名)
   └──凯文·麦克唐纳
  年度男主角(提名)
   └──塔哈·拉希姆
  1. ##### MediaInfo ######
  2. General
  3. Unique ID                                : 34745147406919947140956774113711686508 (0x1A23AC06F7A548725527999475A3036C)
  4. Complete name                            : The.Mauritanian.2021.UHD.2160p.x265.10bit.HDR-MiniHD.mkv
  5. Format                                   : Matroska
  6. Format version                           : Version 4
  7. File size                                : 15.5 GiB
  8. Duration                                 : 2 h 9 min
  9. Overall bit rate mode                    : Variable
  10. Overall bit rate                         : 17.1 Mb/s
  11. Encoded date                             : UTC 2021-12-05 13:30:02
  12. Writing application                      : mkvmerge v62.0.0 ('Apollo') 64-bit
  13. Writing library                          : libebml v1.4.2 + libmatroska v1.6.4
  14. Video
  15. ID                                       : 1
  16. Format                                   : HEVC
  17. Format/Info                              : High Efficiency Video Coding
  18. Format profile                           : Main [email][email protected][/email]@High
  19. HDR format                               : SMPTE ST 2086, HDR10 compatible
  20. Codec ID                                 : V_MPEGH/ISO/HEVC
  21. Duration                                 : 2 h 9 min
  22. Bit rate                                 : 13.1 Mb/s
  23. Width                                    : 3 840 pixels
  24. Height                                   : 1 608 pixels
  25. Display aspect ratio                     : 2.40:1
  26. Frame rate mode                          : Constant
  27. Frame rate                               : 23.976 (24000/1001/53875) FPS
  28. Color space                              : YUV
  29. Chroma subsampling                       : 4:2:0
  30. Bit depth                                : 10 bits
  31. Bits/(Pixel*Frame)                       : 0.088
  32. Stream size                              : 11.8 GiB (76%)
  33. Writing library                          : x265 3.3+3-g8f8e332f1+29:[Windows][#Erg`Djh#][@Yuuki] made by @Dongfangbubai
  34. Encoding settings                        : rc=crf / crf=18.0000 / qcomp=0.70 / qpstep=4 / stats-write=0 / stats-read=0 / vbv-maxrate=160000 / vbv-bufsize=160000 / vbv-init=0.9 / crf-max=0.0 / crf-min=0.0 / no-lossless / no-cu-lossless / aq-mode=3 / aq-strength=0.80 / cbqpoffs=-3 / crqpoffs=-3 / ipratio=1.40 / pbratio=1.30 / psy-rd=2.00 / psy-rdoq=3.00 / deblock=-1:-1 / ref=5 / limit-refs=0 / no-limit-modes / bframes=8 / b-adapt=2 / bframe-bias=0 / b-pyramid / b-intra / weightp / weightb / min-keyint=23 / max-keyint=240 / rc-lookahead=60 / gop-lookahead=0 / NTM4NzU=uuDQuD2mJt9fsCf / scenecut=40 / hist-scenecut=0 / radl=0 / max-cu-size=32 / min-cu-size=8 / me=3 / subme=4 / merange=25 / rdoq-level=2 / rd=4 / rdpenalty=1 / dynamic-rd=0.00 / no-rd-refine / ----- / no-cutree / no-sao / no-rect / no-amp / no-open-gop / wpp / pmode / pme / no-psnr / no-ssim / nr-intra=0 / nr-inter=0 / no-constrained-intra / no-strong-intra-smoothing / max-tu-size=32 / tu-inter-depth=2 / tu-intra-depth=2 / limit-tu=0 / qg-size=32 / qpmax=69 / qpmin=0 / ----- / cpuid=538751176575 / frame-threads=6 / numa-pools=54,- / log-level=2 / input-csp=1 / input-res=3840x1608 / interlace=0 / level-idc=0 / high-tier=1 / uhd-bd=0 / no-allow-non-conformance / repeat-headers / no-aud / hrd / info / hash=0 / no-temporal-layers / lookahead-slices=0 / no-splice / no-intra-refresh / no-ssim-rd / signhide / no-tskip / max-merge=3 / temporal-mvp / no-frame-dup / no-hme / no-analyze-src-pics / no-sao-non-deblock / selective-sao=0 / no-early-skip / no-rskip / no-fast-intra / no-tskip-fast / no-splitrd-skip / zone-count=0 / no-strict-cbr / no-rc-grain / no-const-vbv / sar=0 / overscan=0 / videoformat=5 / range=0 / colorprim=9 / transfer=16 / colormatrix=9 / chromaloc=0 / display-window=0 / master-display=G(13250,34500)B(7500,3000)R(34000,16000)WP(15635,16450)L(10000000,50) / cll=594,109 / min-luma=0 / max-luma=1023 / log2-max-poc-lsb=8 / vui-timing-info / vui-hrd-info / slices=1 / no-opt-qp-pps / no-opt-ref-list-length-pps / no-multi-pass-opt-rps / scenecut-bias=0.05 / hist-threshold=0.01 / no-opt-cu-delta-qp / no-aq-motion / hdr10 / hdr10-opt / no-dhdr10-opt / no-idr-recovery-sei / analysis-reuse-level=0 / analysis-save-reuse-level=0 / analysis-load-reuse-level=0 / scale-factor=0 / refine-intra=0 / refine-inter=0 / refine-mv=1 / refine-ctu-distortion=0 / no-limit-sao / ctu-info=0 / no-lowpass-dct / refine-analysis-type=0 / copy-pic=1 / max-ausize-factor=1.0 / no-dynamic-refine / no-single-sei / no-hevc-aq / no-svt / no-field / qp-adaptation-range=1.00 / no-scenecut-aware-qpconformance-window-offsets / right=0 / bottom=0 / NTM4NzU=
  35. Default                                  : Yes
  36. Forced                                   : No
  37. Color range                              : Limited
  38. Color primaries                          : BT.2020
  39. Transfer characteristics                 : PQ
  40. Matrix coefficients                      : BT.2020 non-constant
  41. Mastering display color primaries        : Display P3
  42. Mastering display luminance              : min: 0.0050 cd/m2, max: 1000 cd/m2
  43. Maximum Content Light Level              : 594 cd/m2
  44. Maximum Frame-Average Light Level        : 109 cd/m2
  45. Audio
  46. ID                                       : 2
  47. Format                                   : DTS XLL
  48. Format/Info                              : Digital Theater Systems
  49. Commercial name                          : DTS-HD Master Audio
  50. Codec ID                                 : A_DTS
  51. Duration                                 : 2 h 9 min
  52. Bit rate mode                            : Variable
  53. Bit rate                                 : 4 026 kb/s
  54. Channel(s)                               : 8 channels
  55. Channel layout                           : C L R LFE Lb Rb Lss Rss
  56. Sampling rate                            : 48.0 kHz
  57. Frame rate                               : 93.750 FPS (512 SPF)
  58. Bit depth                                : 24 bits
  59. Compression mode                         : Lossless
  60. Stream size                              : 3.64 GiB (23%)
  61. Language                                 : English
  62. Default                                  : Yes
  63. Forced                                   : No
  64. Text #1
  65. ID                                       : 3
  66. Format                                   : PGS
  67. Muxing mode                              : zlib
  68. Codec ID                                 : S_HDMV/PGS
  69. Codec ID/Info                            : Picture based subtitle format used on BDs/HD-DVDs
  70. Duration                                 : 2 h 6 min
  71. Bit rate                                 : 34.0 kb/s
  72. Count of elements                        : 3532
  73. Stream size                              : 30.8 MiB (0%)
  74. Title                                    : 简中
  75. Language                                 : Chinese
  76. Default                                  : Yes
  77. Forced                                   : No
  78. Text #2
  79. ID                                       : 4
  80. Format                                   : PGS
  81. Muxing mode                              : zlib
  82. Codec ID                                 : S_HDMV/PGS
  83. Codec ID/Info                            : Picture based subtitle format used on BDs/HD-NewHD
复制代码


















蓝光币
13
2#
发表于 2022-5-14 22:35:04 | 只看该作者
楼主发贴辛苦了,谢谢楼主分享!我觉得蓝光电影网是注册对了!
蓝光币
4
3#
发表于 2022-5-15 10:23:41 | 只看该作者
楼主发贴辛苦了,谢谢楼主分享!我觉得蓝光电影网是注册对了!
懒得打字嘛,点击右侧快捷回复 【右侧内容,后台自定义】
您需要登录后才可以回帖 登录 | 立即加入

本版积分规则

Archiver|小黑屋| 蓝光电影网 |网站地图

Copyright © 2021 Comsenz Inc. Powered by 777老虎机游戏

蓝光电影网

本站内容由用户自主分享和转载自互联网,转载目的在于传递更多信息,并不代表本网赞同其观点和对其真实性负责。

如有侵权、违反国家法律政策行为,请联系我们,我们会第一时间及时清除和处理!

举报反馈邮箱:[email protected]

www.138.bo 返回顶部 返回列表
网站地图 申博娱乐登入 澳门星际赌场 申博太阳城注册 申博138官网
菲律宾申博管理网 申博太阳手机登陆 菲律宾太阳网上娱乐登入 菲律宾申博太阳城
申博会员登入 百家乐真人游戏 盛618网址 百家乐真人游戏
申博现金网址 申博网址 ag真人百家乐 申博娱乐注册
申博娱乐官网 太阳城网址 申博直营网 申博登入网址